Love Story Ma Locho Padyo 2017 Gujrati 1080p AMZN WEB DL H264 DDP


    Seeders : 3      Leechers : 4

Hash :65F34440E34349C5FABE45A040C192A029776AFB
Added :3 months ago in Movies
Size :7.38 GB
Stream :Watch FREE Full Movies @


Love Story Ma Locho Padyo 2017 Gujrati 1080p AMZN WEB DL H264 DDP
Download your torrents safely! And Anonymously!








Please Turn on your VPN before Downloading Torrents.
Your IP Address is 85.202.194.217.   And Location ,
Your Internet Service Provider and Government can track your Online Activity!  Protect yourself from expensive lawsuits and fines NOW!
We Strongly Recommend Using Very Cheap VPN for P2P to Anonymize your Torrenting.

Note :

Please Update (Trackers Info) Before Start Torrents Downloading to See Updated Seeders And Leechers for Batter Download Speed.

Trackers List

Tracker NameLast CheckStatusSeedersLeechers
udp://tracker.opentrackr.org:1337/announce2 months agosuccess34
udp://9.rarbg.me:2710/announce2 months agosuccess21
udp://9.rarbg.to:2720/announce2 months agosuccess21
udp://9.rarbg.to:2770/announce2 months agosuccess21
udp://9.rarbg.to:2730/announce2 months agosuccess21
udp://9.rarbg.to:2740/announce2 months agosuccess21
udp://9.rarbg.me:2770/announce2 months agosuccess21
udp://9.rarbg.me:2730/announce2 months agosuccess21
udp://9.rarbg.me:2740/announce2 months agosuccess21
udp://tracker.internetwarriors.net:1337/announce2 months agosuccess22
udp://tracker.tiny-vps.com:6969/announce2 months agosuccess22
udp://9.rarbg.to:2710/announce2 months agosuccess21
udp://tracker.leechers-paradise.org:6969/announce2 months agosuccess21
udp://tracker.vanitycore.co:6969/announce2 months agofailed00
udp://ipv4.tracker.harry.lu:80/announce2 months agosuccess00
http://bt.acg.gg:1578/announce2 months agofailed00
udp://tracker.port443.xyz:6969/announce2 months agofailed00
udp://tracker.acg.gg:2710/announce2 months agofailed00
udp://asnet.pw:2710/announce2 months agofailed00
udp://tracker.cyberia.is:6969/announce2 months agosuccess00
udp://inferno.demonoid.pw:3418/announce2 months agofailed00
udp://tracker.cypherpunks.ru:6969/announce2 months agofailed00
udp://retracker.lanta-net.ru:2710/announce2 months agosuccess00
udp://public.popcorn-tracker.org:6969/announce2 months agofailed00
udp://exodus.desync.com:6969/announce2 months agosuccess00
udp://tracker.pirateparty.gr:6969/announce2 months agosuccess00
udp://tracker.coppersurfer.tk:6969/announce2 months agosuccess00
udp://shadowshq.yi.org:6969/announce2 months agofailed00
udp://bt. -tracker.com:2710/announce2 months agosuccess00
udp://tracker.zer0day.to:1337/announce2 months agofailed00
udp://eddie4.nl:6969/announce2 months agofailed00
udp://thetracker.org:80/announce2 months agofailed00
http://share.camoe.cn:8080/announce2 months agofailed00
http://tracker3.itzmx.com:8080/announce2 months agofailed00
udp://tracker.torrent.eu.org:4512 months agosuccess00
udp://tracker.mg64.net:6969/announce2 months agofailed00
udp://tracker.torrent.eu.org:451/announce2 months agosuccess00
udp://open.stealth.si:80/announce2 months agofailed00
udp://tracker.justseed.it:1337/announce2 months agosuccess00
udp://tracker.coppersurfer.tk:80/announce2 months agofailed00
udp://ipv6.tracker.harry.lu:80/announce2 months agosuccess00
udp://tracker.trackerfix.com:80/announce2 months agofailed00
udp://p4p.arenabg.ch:1337/announce2 months agofailed00
udp://glotorrents.pw:6969/announce2 months agofailed00



Torrent File Content (1 file)


Love.Story.Ma.Locho.Padyo.2017.Gujrati.1080p.AMZN.WEB.DL.H264.DDP.2.0.ESUBS - MoviePirate.[Telly]
     Love.Story.Ma.Locho.Padyo.2017.Gujrati.1080p.AMZN.WEB.DL.H264.DDP.2.0.ESUBS - MoviePirate.[Telly].mkv -
7.38 GB



Description



www.MoviePirate.club





****************************

_____ _ _

|_ _|___ | || | _ _

| | / _ | || || | | |

| || __/| || || |_| |

|_| ___||_||_| __, |

|___/

****************************

Team Telly Proudly Presents

****************************

------------------

|Media Info|

------------------

Format : Matroska

Format version : Version 4

File size : 7.38 GiB

Duration : 2 h 17 min

Overall bit rate : 7 682 kb/s

Encoded date : UTC 2019-06-12 17:35:54

Writing application : mkvmerge v30.1.0 ('Forever And More') 64-bit

Writing library : libebml v1.3.6 + libmatroska v1.4.9

Video

ID : 1

Format : AVC

Format/Info : Advanced Video Codec

Format profile : [email protected]

Format settings : CABAC / 4 Ref Frames

Format settings, CABAC : Yes

Format settings, RefFrames : 4 frames

Codec ID : V_MPEG4/ISO/AVC

Duration : 2 h 17 min

Bit rate : 7 456 kb/s

Width : 1 920 pixels

Height : 1 080 pixels

Display aspect ratio : 16:9

Frame rate mode : Constant

Frame rate : 25.000 FPS

Color space : YUV

Chroma subsampling : 4:2:0

Bit depth : 8 bits

Scan type : Progressive

Bits/(Pixel*Frame) : 0.144

Stream size : 7.16 GiB (97%)

Default : Yes

Forced : No

Color range : Limited

Color primaries : BT.709

Transfer characteristics : BT.709

Matrix coefficients : BT.709

Audio

ID : 2

Format : E-AC-3

Format/Info : Enhanced AC-3

Commercial name : Dolby Digital Plus

Codec ID : A_EAC3

Duration : 2 h 17 min

Bit rate mode : Constant

Bit rate : 224 kb/s

Channel(s) : 2 channels

Channel layout : L R

Sampling rate : 48.0 kHz

Frame rate : 31.250 FPS (1536 SPF)

Compression mode : Lossy

Stream size : 220 MiB (3%)

Service kind : Complete Main

Default : Yes

Forced : No

Text

ID : 3

Format : UTF-8

Codec ID : S_TEXT/UTF8

Codec ID/Info : UTF-8 Plain Text

Duration : 2 h 17 min

Bit rate : 62 b/s

Count of elements : 1897

Stream size : 62.9 KiB (0%)

Title : SDH

Language : English

Default : No

Forced : No

****************************

Tellytorrent.net

Team Telly Official Site

****************************

www.MoviePirate.club

Enjoy Exclusives Content only on TellyTorrent.net














Related torrents

Torrent NameAddedSizeSeedLeechHealth
6 months ago - in Movies7.92 GB10
6 months ago - in Movies5.93 GB10
10 months ago - in Other6.19 GB00
1 Year+ - in Movies6.25 GB104
5 months ago - in Movies7.1 GB00
6 months ago - in Movies5.48 GB21

Note :

Feel free to post any comments about this torrent, including links to Subtitle, samples, screenshots, or any other relevant information. Watch Love Story Ma Locho Padyo 2017 Gujrati 1080p AMZN WEB DL H264 DDP Free Movies Online, Like 123Movies, Fmovies, Putlockers, Popcorntime, Netflix or Direct Download Love Story Ma Locho Padyo 2017 Gujrati 1080p AMZN WEB DL H264 DDP via Magnet Link.

Comments (0 Comments)




Please login or create a FREE account to post comments

Latest Searches